Details for this torrent 

Have I Got a Bit More News for You Season 57. revittony
Type:
Video > TV shows
Files:
10
Size:
4.94 GiB (5300874446 Bytes)
Info:
IMDB
Tag(s):
tt0098820
Uploaded:
2019-06-12 18:55:08 GMT
By:
revittony1 Trusted
Seeders:
2
Leechers:
2
Comments
0  

Info Hash:
20D4139DDF3CD06045C1DD4204871FB1915EF3DB




(Problems with magnets links are fixed by upgrading your torrent client!)
 https://www.imdb.com/title/tt0098820



Format : MPEG-4 
Format profile : Base Media 
Codec ID : isom (isom/iso2/avc1/mp41) 
Overall bit rate mode : Variable 
Overall bit rate : 1 859 Kbps 




Video 
ID : 1 
Format : AVC 
Format/Info : Advanced Video Codec 
Format profile : [email protected] 
Format settings, CABAC : Yes 
Format settings, ReFrames : 4 frames 
Format settings, GOP : M=8, N=96 
Codec ID : avc1 
Codec ID/Info : Advanced Video Coding 
Duration : 42mn 5s 
Bit rate : 1 536 Kbps 
Width : 960 pixels 
Height : 540 pixels 
Display aspect ratio : 16:9 
Frame rate mode : Constant 
Frame rate : 25.000 fps 
Color space : YUV 
Chroma subsampling : 4:2:0 
Bit depth : 8 bits 
Scan type : Progressive 
Bits/(Pixel*Frame) : 0.119 
Stream size : 463 MiB (83%) 
Color range : Limited 
Color primaries : BT.709 
Transfer characteristics : BT.709 
Matrix coefficients : BT.709 

Audio 
ID : 2 
Format : AAC 
Format/Info : Advanced Audio Codec 
Format profile : LC 
Codec ID : 40 
Duration : 42mn 5s 
Bit rate mode : Variable 
Bit rate : 317 Kbps 
Maximum bit rate : 400 Kbps 
Channel(s) : 2 channels 
Channel positions : Front: L R 
Sampling rate : 48.0 KHz 
Frame rate : 46.875 fps (1024 spf) 
Compression mode : Lossy 
Stream size : 95.6 MiB (17%) 
Language : English 
Default : Yes 
Alternate group : 1