Details for this torrent 

Abbys Season 1. revittony
Type:
Video > TV shows
Files:
12
Size:
1.18 GiB (1269907983 Bytes)
Info:
IMDB
Tag(s):
tt7768346
Uploaded:
2019-06-14 11:11:26 GMT
By:
revittony1 Trusted
Seeders:
1
Leechers:
0
Comments
0  

Info Hash:
876E03A3FDAD09525D991FBFD1ACFA0CE8A60997




(Problems with magnets links are fixed by upgrading your torrent client!)
 https://www.imdb.com/title/tt7768346



Format : Matroska 
Format version : Version 4 
Overall bit rate : 837 kb/s 
Encoded date : UTC 2019-03-29 02:04:06 
Writing application : mkvmerge v24.0.0 ('Beyond The Pale') 64-bit 
Writing library : libebml v1.3.6 + libmatroska v1.4.9 

Video 
ID : 1 
Format : AVC 
Format/Info : Advanced Video Codec 
Format profile : [email protected] 
Format settings : CABAC / 5 Ref Frames 
Format settings, CABAC : Yes 
Format settings, Reference frames : 5 frames 
Codec ID : V_MPEG4/ISO/AVC 
Duration : 21 min 25 s 
Bit rate : 734 kb/s 
Width : 720 pixels 
Height : 404 pixels 
Display aspect ratio : 16:9 
Frame rate mode : Constant 
Frame rate : 23.976 (24000/1001) FPS 
Color space : YUV 
Chroma subsampling : 4:2:0 
Bit depth : 8 bits 
Scan type : Progressive 
Bits/(Pixel*Frame) : 0.105 
Stream size : 112 MiB (88%) 
Writing library : x264 core 157 r2932 303c484 
Language : English 
Default : Yes 
Forced : No 
Color range : Limited 
Matrix coefficients : BT.709 

Audio 
ID : 2 
Format : AAC LC 
Format/Info : Advanced Audio Codec Low Complexity 
Codec ID : A_AAC-2 
Duration : 21 min 25 s 
Bit rate : 100.0 kb/s 
Channel(s) : 2 channels 
Channel layout : L R 
Sampling rate : 48.0 kHz 
Frame rate : 46.875 FPS (1024 SPF) 
Compression mode : Lossy 
Delay relative to video : 20 ms 
Stream size : 15.3 MiB (12%) 
Language : English 
Default : Yes 
Forced : No